Grass Valley Forums Facebook   Twitter   YouTube  

Go Back   Grass Valley Forums > Editors > Editing with EDIUS

Reply
 
Thread Tools Display Modes
Old 02-06-2018, 03:23 PM   #1
nitrococuk
Senior Member
 
nitrococuk's Avatar
 
Join Date: Jul 2009
Location: Bodrum - Turkey
Posts: 368
Default What am I doing wrong ? (Exporting H264-MP4)

Hi. First of all, here's my project settings;

Quote:
Video
Frame Size : 1920 x 1080
Frame Rate : 50,00
Aspect Ratio : 1,0000
Field order : Progressive
Video Channels : YCbCr + Alpha
Quantization Bit Rate : 8Bit
Stereoscopic Editing : Disable
Audio
Sampling Rate : 32000Hz
Quantization Bit Rate : 16 Bit
Channel : 2
Setup
Render format
Uncompressed RGBA AVI
Over Scan Size : 0 %
Audio Reference Level : -20,0dB
Resampling method
Area Average (Fast & Sharp)

% 99 of my footages on timeline is exactly the same as the project settings. All I want to render project as .mp4 (h264) but I can not find any valid preset under h264/avc category in "Print to File" window. Even when I enable conversion, I get this error:



OK, I get what I want by exporting in Quicktime Profile as a .mov file, however that encoding is taking little bit more time.

So what should I do now or
Is the thing I did is already what I could only do for this case ?
nitrococuk is offline   Reply With Quote
Old 02-06-2018, 03:27 PM   #2
GrassValley_SL
Moderator
 
GrassValley_SL's Avatar
 
Join Date: Mar 2010
Location: SA
Posts: 7,617
Default

Change the audio of you project to 48000hz and check if it works
__________________
Steve


Please don't send me Private Messages for support. Contact Grass Valley support
GrassValley_SL is offline   Reply With Quote
Old 02-06-2018, 03:46 PM   #3
nitrococuk
Senior Member
 
nitrococuk's Avatar
 
Join Date: Jul 2009
Location: Bodrum - Turkey
Posts: 368
Default

Quote:
Originally Posted by GrassValley_SL View Post
Change the audio of you project to 48000hz and check if it works
ok it is working now. I will check the result file when it's done.
However, I hope it will not drop the frames to 25. There's no 50p and when i select "50i", it forces me down to 25 frame rates.

I will let you know when it is finished.
nitrococuk is offline   Reply With Quote
Old 02-06-2018, 04:18 PM   #4
nitrococuk
Senior Member
 
nitrococuk's Avatar
 
Join Date: Jul 2009
Location: Bodrum - Turkey
Posts: 368
Default

Here's the result file details:

---------------------------------------------
General
Complete name : C:\Users\PASKAL\Desktop\deneme.mp4
Format : MPEG-4
Format profile : JVT
Codec ID : avc1 (avc1/mp42)
File size : 1.02 GiB
Duration : 8 min 22 s
Overall bit rate mode : Constant
Overall bit rate : 17.5 Mb/s
Encoded date : UTC 2018-02-06 15:35:33
Tagged date : UTC 2018-02-06 15:35:33

Video
ID : 1
Format : AVC
Format/Info : Advanced Video Codec
Format profile : High@L4
Format settings, CABAC : Yes
Format settings, ReFrames : 2 frames
Codec ID : avc1
Codec ID/Info : Advanced Video Coding
Duration : 8 min 22 s
Bit rate mode : Constant
Bit rate : 17.0 Mb/s
Width : 1 920 pixels
Height : 1 080 pixels
Display aspect ratio : 16:9
Frame rate mode : Constant
Frame rate : 50.000 FPS
Original frame rate : 25.000 FPS
Color space : YUV
Chroma subsampling : 4:2:0
Bit depth : 8 bits
Scan type : Interlaced
Scan type, store method : Separated fields
Scan order : Top Field First
Bits/(Pixel*Frame) : 0.164
Stream size : 1 018 MiB (97%)
Language : English
Encoded date : UTC 2018-02-06 15:35:33
Tagged date : UTC 2018-02-06 15:35:33

Audio
ID : 2
Format : AAC
Format/Info : Advanced Audio Codec
Format profile : LC
Codec ID : 40
Duration : 8 min 22 s
Source duration : 8 min 22 s
Bit rate mode : Constant
Bit rate : 512 kb/s
Channel(s) : 2 channels
Channel positions : Front: L R
Sampling rate : 48.0 kHz
Frame rate : 46.875 FPS (1024 spf)
Compression mode : Lossy
Stream size : 30.7 MiB (3%)
Source stream size : 30.7 MiB (3%)
Language : English
Encoded date : UTC 2018-02-06 15:35:33
Tagged date : UTC 2018-02-06 15:35:33

-------------------------------

Now the video is interlaced ?
Is it 50fps or 25 fps now ?
nitrococuk is offline   Reply With Quote
Old 02-06-2018, 05:11 PM   #5
Jerry
Senior Member
 
Jerry's Avatar
 
Join Date: May 2007
Location: Orange City, FL
Posts: 11,371
Default

I don't know what version you are using, but here is my Media Info screen shot from Edius 9.1:
Media Info 25i to 50p.png

Here are my project settings(you don't have to use 10bit):
25i to 50p Project settings.png
__________________
Jerry
Six Gill DV
www.sgdvtutorials.com
If you own the Tutorials and you need help, PM me.

Vistitle YouTube Channel
https://www.youtube.com/channel/UCMVlxC8Am4qFbkXJRoPAnMQ/videos

Windows 10 Pro up to v.1803 Tweaks for Edius Users
http://sgdvtutorials.com/WIN%2010%20...%20V.2.0.0.pdf

Main System: Azrock Z97 Extreme 6, 4790K@4.7Ghz, 32gb ram, Corsair H110, Win10 Pro 64, Samsung 850 pro, E7.5/8.5/E9 on separate SSD drives, HD Spark, Intensity Shuttle, 12tb RAID 0 on backplane ,2 BD, Benq 27 and Hanns-G 28 monitors, CC 2019, GTX 1080ti SC Black.
Both systems on Gigabit network
Second System: EditHD Ultimax-i7, X58, 980x@3.74, Corsair H80, Win764, 24gb ram, Storm 3g, Samsung 840 Pro 256, 4tb and 6tb RAID 0 on backplane, GTX 980ti Classified, Edius 9, Apple 30", Samsung 24", dual BD.
Jerry is offline   Reply With Quote
Old 02-06-2018, 10:43 PM   #6
antonsvideo
Senior Member
 
antonsvideo's Avatar
 
Join Date: May 2007
Location: Sydney
Posts: 21,754
Default

if you select the H264/AVC as seen in attached, the resulting file will be the same as the project setting
https://www.videoproductions.com.au/...4-exporter.png

video always uses 48k audio as you now discovered
__________________
Anton Strauss
Antons Video Productions - Sydney

EDIUS 9 WG with Matrox MXO2, Asrock X99 Extreme 6, Intel Core i7 5960X Extreme Haswell-E 8-Core, Corsair Water Cooling, Nvidia Geforce GTX-980, Samsung 860 Pro SSD for System, 8TB Samsung Raid0 SSD for Video, 3 Pioneer BDR-209 Blu-ray/DVD burners, Hotswap Bay for 3.5" Sata and 2.5" SSD, Fractal Design Arc XL Tower, 32GB DDR4 Ram, Win7 Pro
antonsvideo is offline   Reply With Quote
Reply
 
Go Back   Grass Valley Forums > Editors > Editing with EDIUS
 

Bookmarks

Thread Tools
Display Modes

Similar Threads
Thread Thread Starter Forum Replies Last Post
Exporting MP4 file using H264 for edius 8.3 Rajendrasingh Editing with EDIUS 3 12-24-2016 06:47 AM
GoPro OMNI footage: Autopano Video Pro exporting mp4 h264 at odd 25.06 fps framerate Maxim Drygin Editing with EDIUS 3 12-13-2016 02:47 PM
What am I doing wrong ? (Cant export mp4) nitrococuk Editing with EDIUS 1 05-10-2010 11:30 PM

Posting Rules
You may not post new threads
You may not post replies
You may not post attachments
You may not edit your posts

BB code is On
Smilies are Off
[IMG] code is On
HTML code is Off

Forum Jump


All times are GMT +1. The time now is 07:37 AM.


Copyright 2014 Belden Inc. All rights reserved.