View Single Post
Old 08-06-2019, 03:01 PM   #4
jschipmann
Junior Member
 
Join Date: Feb 2011
Location: Ashland KY
Posts: 6
Default

General
Complete name : R:\OASIS\BHDN_KY Teacher shortage_GRAYee70_120.mpg
Format : MPEG-PS
File size : 334 MiB
Duration : 1 min 48 s
Overall bit rate mode : Constant
Overall bit rate : 25.9 Mb/s

Video
ID : 224 (0xE0)
Format : MPEG Video
Format version : Version 2
Format profile : Main@High
Format settings : CustomMatrix / BVOP
Format settings, BVOP : Yes
Format settings, Matrix : Custom
Format settings, GOP : M=3, N=15
Format settings, picture structure : Frame
Duration : 1 min 48 s
Bit rate mode : Constant
Bit rate : 25.0 Mb/s
Width : 1 920 pixels
Height : 1 080 pixels
Display aspect ratio : 16:9
Frame rate : 29.970 (30000/1001) FPS
Color space : YUV
Chroma subsampling : 4:2:0
Bit depth : 8 bits
Scan type : Interlaced
Scan order : Top Field First
Compression mode : Lossy
Bits/(Pixel*Frame) : 0.402
Time code of first frame : 00:00:00;00
Time code source : Group of pictures header
GOP, Open/Closed : Open
GOP, Open/Closed of first frame : Closed
Stream size : 323 MiB (97%)

Audio
ID : 192 (0xC0)
Format : MPEG Audio
Format version : Version 1
Format profile : Layer 2
Duration : 1 min 48 s
Bit rate mode : Constant
Bit rate : 384 kb/s
Channel(s) : 2 channels
Sampling rate : 48.0 kHz
Frame rate : 41.667 FPS (1152 SPF)
Compression mode : Lossy
Stream size : 4.96 MiB (1%)
jschipmann is offline   Reply With Quote