Announcement

Collapse
No announcement yet.

EDIUS 10 Pro and H264/AVC files : codec missing ?

Collapse
X
 
  • Filter
  • Time
  • Show
Clear All
new posts

  • EDIUS 10 Pro and H264/AVC files : codec missing ?

    Hello,

    With EDIUS 9 Pro, I was able to open all my H264/AVC files.
    With EDIUS 10 Pro, it no longer works.
    A codec seems to have disappeared.

    Do you have this problem? Is this codec for sale now?
    How did you solve this problem (without having to transcode all your files).

    Thank you !

    ASUS X99-A II / Intel Core i7-6850K 3.60GHz / 64MB DDR4 2400MHz / NVIDIA GeForce GTX 1080 Ti / Windows 10 Professional

  • #2
    EDIUS x should open H264/AVC files. Can you provide a sample?
    Steve

    Get Support or the Latest version of EDIUS:
    EDIUS support and Downloads

    Comment


    • #3
      Sure. How can I share this file with you (knowing it's a 4,6GB movie) ?

      In addition, here are the file information I got with MediaInfo :

      File
      Format : MPEG-4
      Format profile : Base Media / Version 2
      Codec ID : mp42 (isom/iso2/avc1/mp41)
      File size : 4.42 GiB
      Duration : 1 h 46 min
      Overall bit rate : 5 958 kb/s
      Writing application : HandBrake 1.3.3 2020061300
      Video
      Format : AVC
      Format/Info : Advanced Video Codec
      Format profile : [email protected]
      Format settings : CABAC / 5 Ref Frames
      Format settings, CABAC : Yes
      Format settings, Reference frames : 5 frames
      Codec ID : avc1
      Codec ID/Info : Advanced Video Coding
      Duration : 1 h 46 min
      Bit rate : 5 567 kb/s
      Width : 1 920 pixels
      Height : 816 pixels
      Display aspect ratio : 2.35:1
      Frame rate mode : Variable
      Frame rate : 24.000 FPS
      Minimum frame rate : 15.873 FPS
      Maximum frame rate : 24.000 FPS
      Color space : YUV
      Chroma subsampling : 4:2:0
      Bit depth : 8 bits
      Scan type : Progressive
      Bits/(Pixel*Frame) : 0.148
      Stream size : 4.13 GiB (93%)
      Writing library : x264 core 157 r2935 545de2f
      Encoding settings : cabac=1 / ref=5 / deblock=1:0:0 / analyse=0x3:0x113 / me=hex / subme=8 / psy=1 / psy_rd=1.00:0.00 / mixed_ref=1 / me_range=16 / chroma_me=1 / trellis=2 / 8x8dct=1 / cqm=0 / deadzone=21,11 / fast_pskip=1 / chroma_qp_offset=-2 / threads=18 / lookahead_threads=3 / sliced_threads=0 / nr=0 / decimate=1 / interlaced=0 / bluray_compat=0 / constrained_intra=0 / bframes=3 / b_pyramid=2 / b_adapt=1 / b_bias=0 / direct=3 / weightb=1 / open_gop=0 / weightp=2 / keyint=240 / keyint_min=24 / scenecut=40 / intra_refresh=0 / rc_lookahead=50 / rc=crf / mbtree=1 / crf=20.0 / qcomp=0.60 / qpmin=0 / qpmax=69 / qpstep=4 / vbv_maxrate=25000 / vbv_bufsize=31250 / crf_max=0.0 / nal_hrd=none / filler=0 / ip_ratio=1.40 / aq=1:1.00
      Color range : Limited
      Color primaries : BT.709
      Transfer characteristics : BT.709
      Matrix coefficients : BT.709
      Codec configuration box : avcC
      Audio
      Format : AC-3
      Format/Info : Audio Coding 3
      Commercial name : Dolby Digital
      Codec ID : ac-3
      Duration : 1 h 46 min
      Bit rate mode : Constant
      Bit rate : 384 kb/s
      Channel(s) : 1 channel
      Channel layout : C
      Sampling rate : 48.0 kHz
      Frame rate : 31.250 FPS (1536 SPF)
      Compression mode : Lossy
      Stream size : 292 MiB (6%)
      Title : Mono
      Language : French
      Service kind : Complete Main
      Default : Yes
      Alternate group : 1

      Comment


      • #4
        that file was encoded with Handbrake using a variable frame rate, EDIUS flips out about variable frame rates

        I have no idea why anyone would set Handbrake to variable frame rate

        in any case, if 9 opens the file, X must open it
        Anton Strauss
        Antons Video Productions - Sydney

        EDIUS X WG with BM Mini Monitor 4k and BM Mini Recorder, Gigabyte X299 UD4 Pro, Intel Core i9 9960X 16 Core, 32 Threads @ 4.3Ghz, Corsair Water Cooling, Gigabyte RTX-2070 Super 3X 8GB Video Card, Samsung 860 Pro 512GB SSD for System, 8TB Samsung Raid0 SSD for Video, 2 Pioneer BDR-209 Blu-ray/DVD burners, Hotswap Bay for 3.5" Sata and 2.5" SSD, Phanteks Enthoo Pro XL Tower, Corsair 32GB DDR4 Ram, Win10 Pro 21H2

        Comment


        • #5
          Originally posted by antonsvideo View Post
          that file was encoded with Handbrake using a variable frame rate, EDIUS flips out about variable frame rates

          I have no idea why anyone would set Handbrake to variable frame rate

          in any case, if 9 opens the file, X must open it
          Thank you for answering !
          EDIUS x does not open such files. Error message is "codec not supported".
          I have been said by my local reseller that it could be related to the end of use/support of 'QuickTime' codec.
          What are your advices?

          Comment


          • #6
            Originally posted by GrassValley_SL View Post
            EDIUS x should open H264/AVC files. Can you provide a sample?
            Sure. How can I share this file with you (knowing it's a 4,6GB movie) ?

            In addition, here are the file information I got with MediaInfo :

            File
            Format : MPEG-4
            Format profile : Base Media / Version 2
            Codec ID : mp42 (isom/iso2/avc1/mp41)
            File size : 4.42 GiB
            Duration : 1 h 46 min
            Overall bit rate : 5 958 kb/s
            Writing application : HandBrake 1.3.3 2020061300
            Video
            Format : AVC
            Format/Info : Advanced Video Codec
            Format profile : [email protected]
            Format settings : CABAC / 5 Ref Frames
            Format settings, CABAC : Yes
            Format settings, Reference frames : 5 frames
            Codec ID : avc1
            Codec ID/Info : Advanced Video Coding
            Duration : 1 h 46 min
            Bit rate : 5 567 kb/s
            Width : 1 920 pixels
            Height : 816 pixels
            Display aspect ratio : 2.35:1
            Frame rate mode : Variable
            Frame rate : 24.000 FPS
            Minimum frame rate : 15.873 FPS
            Maximum frame rate : 24.000 FPS
            Color space : YUV
            Chroma subsampling : 4:2:0
            Bit depth : 8 bits
            Scan type : Progressive
            Bits/(Pixel*Frame) : 0.148
            Stream size : 4.13 GiB (93%)
            Writing library : x264 core 157 r2935 545de2f
            Encoding settings : cabac=1 / ref=5 / deblock=1:0:0 / analyse=0x3:0x113 / me=hex / subme=8 / psy=1 / psy_rd=1.00:0.00 / mixed_ref=1 / me_range=16 / chroma_me=1 / trellis=2 / 8x8dct=1 / cqm=0 / deadzone=21,11 / fast_pskip=1 / chroma_qp_offset=-2 / threads=18 / lookahead_threads=3 / sliced_threads=0 / nr=0 / decimate=1 / interlaced=0 / bluray_compat=0 / constrained_intra=0 / bframes=3 / b_pyramid=2 / b_adapt=1 / b_bias=0 / direct=3 / weightb=1 / open_gop=0 / weightp=2 / keyint=240 / keyint_min=24 / scenecut=40 / intra_refresh=0 / rc_lookahead=50 / rc=crf / mbtree=1 / crf=20.0 / qcomp=0.60 / qpmin=0 / qpmax=69 / qpstep=4 / vbv_maxrate=25000 / vbv_bufsize=31250 / crf_max=0.0 / nal_hrd=none / filler=0 / ip_ratio=1.40 / aq=1:1.00
            Color range : Limited
            Color primaries : BT.709
            Transfer characteristics : BT.709
            Matrix coefficients : BT.709
            Codec configuration box : avcC
            Audio
            Format : AC-3
            Format/Info : Audio Coding 3
            Commercial name : Dolby Digital
            Codec ID : ac-3
            Duration : 1 h 46 min
            Bit rate mode : Constant
            Bit rate : 384 kb/s
            Channel(s) : 1 channel
            Channel layout : C
            Sampling rate : 48.0 kHz
            Frame rate : 31.250 FPS (1536 SPF)
            Compression mode : Lossy
            Stream size : 292 MiB (6%)
            Title : Mono
            Language : French
            Service kind : Complete Main
            Default : Yes
            Alternate group : 1

            Comment


            • #7
              Originally posted by fmabin View Post

              Thank you for answering !
              EDIUS x does not open such files. Error message is "codec not supported".
              I have been said by my local reseller that it could be related to the end of use/support of 'QuickTime' codec.
              What are your advices?
              do you have EDIUS 9 on the same PC as X? If yes, it should work in both. all my Handbrake encoded file work in 9 and X but I do not use variable frame rates and I always make stereo mp4 and not single channel mono

              you can send the file with antonsvideo.wetransfer.com and I test it
              Anton Strauss
              Antons Video Productions - Sydney

              EDIUS X WG with BM Mini Monitor 4k and BM Mini Recorder, Gigabyte X299 UD4 Pro, Intel Core i9 9960X 16 Core, 32 Threads @ 4.3Ghz, Corsair Water Cooling, Gigabyte RTX-2070 Super 3X 8GB Video Card, Samsung 860 Pro 512GB SSD for System, 8TB Samsung Raid0 SSD for Video, 2 Pioneer BDR-209 Blu-ray/DVD burners, Hotswap Bay for 3.5" Sata and 2.5" SSD, Phanteks Enthoo Pro XL Tower, Corsair 32GB DDR4 Ram, Win10 Pro 21H2

              Comment


              • #8
                Originally posted by antonsvideo View Post

                do you have EDIUS 9 on the same PC as X? If yes, it should work in both. all my Handbrake encoded file work in 9 and X but I do not use variable frame rates and I always make stereo mp4 and not single channel mono

                you can send the file with antonsvideo.wetransfer.com and I test it
                I've just sent to you (with wetransfer) the 4,6 GiB file, thank you in advance for testing this !
                Yes, I do have EDIUS 9 Pro on the same PC and yes it does work with EDIUS 9 Pro

                I have uninstalled EDIUS x Pro and EDIUS 9 Pro from that PC, then reinstalled only EDIUS x Pro : it does not change anything
                I have then installed QuickTime : it does not change anything

                I agree that encoding parameters of that movie are a little surprising, but what is more surprising according to me is that EDIUS x cannot open such a file

                Comment


                • #9
                  I can confirm that your video works fine in EDIUS 9
                  I can confirm that your video is dead in EDIUS X
                  I will report it and let you know if there is a solution

                  AVP-0207.png
                  Anton Strauss
                  Antons Video Productions - Sydney

                  EDIUS X WG with BM Mini Monitor 4k and BM Mini Recorder, Gigabyte X299 UD4 Pro, Intel Core i9 9960X 16 Core, 32 Threads @ 4.3Ghz, Corsair Water Cooling, Gigabyte RTX-2070 Super 3X 8GB Video Card, Samsung 860 Pro 512GB SSD for System, 8TB Samsung Raid0 SSD for Video, 2 Pioneer BDR-209 Blu-ray/DVD burners, Hotswap Bay for 3.5" Sata and 2.5" SSD, Phanteks Enthoo Pro XL Tower, Corsair 32GB DDR4 Ram, Win10 Pro 21H2

                  Comment


                  • #10
                    Originally posted by antonsvideo View Post
                    I can confirm that your video works fine in EDIUS 9
                    I can confirm that your video is dead in EDIUS X
                    I will report it and let you know if there is a solution

                    AVP-0207.png
                    I really appreciate this quick feedback
                    In the screenshot, why did you highlight the Stream Type displayed by EDIUS 9 Pro : QuickTime video(avc1) ?

                    Comment


                    • #11
                      Originally posted by fmabin View Post

                      I really appreciate this quick feedback
                      In the screenshot, why did you highlight the Stream Type displayed by EDIUS 9 Pro : QuickTime video(avc1) ?
                      because I want to show the failed stream type to the developers
                      Anton Strauss
                      Antons Video Productions - Sydney

                      EDIUS X WG with BM Mini Monitor 4k and BM Mini Recorder, Gigabyte X299 UD4 Pro, Intel Core i9 9960X 16 Core, 32 Threads @ 4.3Ghz, Corsair Water Cooling, Gigabyte RTX-2070 Super 3X 8GB Video Card, Samsung 860 Pro 512GB SSD for System, 8TB Samsung Raid0 SSD for Video, 2 Pioneer BDR-209 Blu-ray/DVD burners, Hotswap Bay for 3.5" Sata and 2.5" SSD, Phanteks Enthoo Pro XL Tower, Corsair 32GB DDR4 Ram, Win10 Pro 21H2

                      Comment

                      Working...
                      X