Grass Valley Forums Facebook   Twitter   YouTube  

Go Back   Grass Valley Forums > Converters > ProCoder

Reply
 
Thread Tools Display Modes
Old 10-23-2008, 07:51 PM   #1
totalfreedom
Junior Member
 
Join Date: Mar 2008
Location: UK
Posts: 17
Default MP4 from Sony PMW-EX3 supported?

Hi all.

I've received from a client 16 hours of video content that came out from a Sony PMW-EX3 camera.

I need to transcode all this content to WMV with logo bumpers at the start and end.

I didn't have any problem importing different types of formats into Procoder until I received these MP4 - "not supported".
I can play the files with VLC and audio and video seemed fine.

Here are the specs of the files (taken using MediaInfo) :

Format : MPEG-4
Format profile : Base Media / Version 2
Codec ID : mp42
File size : 3.49 GiB
Duration : 18mn 50s
Overall bit rate : 26.5 Mbps

Video
Format : MPEG Video
Format version : Version 2
Format profile : Main@High-1440
Format settings, Matrix : Default
Codec ID : 61
Duration : 18mn 50s
Bit rate mode : Constant
Bit rate : 25.0 Mbps
Width : 1 440 pixels
Height : 1 080 pixels
Display aspect ratio : 16/9
Frame rate mode : Constant
Frame rate : 25.000 fps
Standard : Component
Colorimetry : 4:2:0
Scan type : Interlaced
Scan order : Top Field First
Bits/(Pixel*Frame) : 0.643
Stream size : 3.29 GiB (94%)
Language : English

Audio
Format : PCM
Format settings, Endianness : Big
Format settings, Sign : Signed
Codec ID : twos
Duration : 18mn 50s
Bit rate mode : Constant
Bit rate : 1 536 Kbps
Channel(s) : 2 channels
Sampling rate : 48.0 KHz
Resolution : 16 bits
Stream size : 207 MiB (6%)
Language : English

I don't have EDIUS, only Procoder v3.05.

Help much appreciated. A solution would make me very happy and my client too :-).

Thanks,

Manuel
totalfreedom is offline   Reply With Quote
Old 10-23-2008, 08:15 PM   #2
GrassValley_KH
Mr Sparkle
 
Join Date: Apr 2007
Location: San Jose, CA
Posts: 3,802
Default

ProCoder does not support XDCAM (in or out).

You might be able to work it through an AVISynth script, but that's certainly stretching it.
GrassValley_KH is offline   Reply With Quote
Reply
 
Go Back   Grass Valley Forums > Converters > ProCoder
 

Bookmarks

Thread Tools
Display Modes

Similar Threads
Thread Thread Starter Forum Replies Last Post
ADVC-HD50 (two of them) Not Working Properly w/ Sony VTRs/Camcorders used to Capture DaveT ADVC 1 11-24-2008 04:59 AM
sony pmw ex3 deebee69 Editing with EDIUS 4 04-29-2008 06:42 PM

Posting Rules
You may not post new threads
You may not post replies
You may not post attachments
You may not edit your posts

BB code is On
Smilies are Off
[IMG] code is On
HTML code is Off

Forum Jump


All times are GMT +1. The time now is 09:05 AM.


Copyright 2014 Belden Inc. All rights reserved.